» » Craig Fuller / Eric Kaz - Craig Fuller / Eric Kaz (Expanded Edition)

Craig Fuller / Eric Kaz - Craig Fuller / Eric Kaz (Expanded Edition) MP3

  • Performer: Craig Fuller / Eric Kaz
  • Title: Craig Fuller / Eric Kaz (Expanded Edition)
  • Genre: Rock
  • Country: US
  • Record source: CD, Album, Reissue, Remastered
  • Released: 2015
  • Style: Country Rock, Soft Rock
  • Label: Real Gone Music
  • Cat#: RGM-0349
  • MP3 album: 1123 mb
  • FLAC album: 2144 mb
  • Rating: 4.8/5
  • Votes: 492
Craig Fuller / Eric Kaz - Craig Fuller / Eric Kaz (Expanded Edition) MP3

Tracklist

1Restless Sea
2Annabella (Single Version)
3Fool For You
4Cry Like A Rainstorm
5The Ways Of A Woman
6Annabella (Reprise)
7Annabella
8'Til You Come Back
9Let The Fire Burn All Night
10You Take A Heart
11Feel That Way Again


Versions

CategoryArtistTitle (Format)LabelCategoryCountryYear
JC 35324Craig Fuller / Eric Kaz Craig Fuller / Eric Kaz - Craig Fuller / Eric Kaz ‎(LP, Album, Ter)ColumbiaJC 35324US1978
PC 35324Craig Fuller / Eric Kaz Craig Fuller / Eric Kaz - Craig Fuller / Eric Kaz ‎(LP, Album)CBSPC 35324Canada1978
JC 35324Craig Fuller / Eric Kaz Craig Fuller / Eric Kaz - Craig Fuller / Eric Kaz ‎(LP, Album)CBSJC 35324US1978
SRCS 6357Craig Fuller / Eric Kaz Craig Fuller / Eric Kaz - Craig Fuller / Eric Kaz ‎(CD, Album, RE)Sony RecordsSRCS 6357Japan1993
SICP-5464Craig Fuller / Eric Kaz Craig Fuller / Eric Kaz - Craig Fuller / Eric Kaz ‎(CD, Album, Ltd, RE, RM)Sony Records Int'lSICP-5464Japan2017


Credits

  • Liner NotesEd Osborne
  • ProducerVal Garay
  • Reissue ProducerGordon Anderson
  • Remastered ByVic Anesini
  • Written-ByC. Fuller (tracks: 1, 4, 8, 10), E. Kaz (tracks: 2 to 7, 9, 10)


Barcodes

  • Barcode: 8 48064 00349 6


Companies

  • Copyright (c) – Real Gone Music
  • Phonographic Copyright (p) – Columbia Records
  • Manufactured For – Real Gone Music
  • Manufactured By – Sony Music Entertainment
  • Remastered At – Battery Studios, New York


Video


Reviews of the Craig Fuller / Eric Kaz - Craig Fuller / Eric Kaz (Expanded Edition) (1):
Aria
foobar2000 1.3.17 / Dynamic Range Meter 1.1.1
log date: 2018-11-24 16:32:25

--------------------------------------------------------------------------------
Analyzed: Craig Fuller / Eric Kaz / Craig Fuller / Eric Kaz (Expanded Edition)
--------------------------------------------------------------------------------

DR Peak RMS Duration Track
--------------------------------------------------------------------------------
DR13 -0.25 dB -15.71 dB 5:43 01-Feel That Way Again
DR13 -1.75 dB -16.87 dB 3:36 02-Cry Like a Rainstorm
DR12 -5.41 dB -19.98 dB 3:07 03-You Take a Heart
DR13 -1.03 dB -16.25 dB 3:27 04-Let the Fire Burn All Night
DR12 -1.23 dB -15.96 dB 4:11 05-'Til You Come Back
DR13 -0.97 dB -16.19 dB 4:04 06-Annabella
DR13 -0.98 dB -17.57 dB 3:43 07-The Ways of a Woman
DR13 -1.30 dB -16.28 dB 3:24 08-Fool for You
DR13 -0.25 dB -15.73 dB 4:21 09-Restless Sea
DR11 -7.12 dB -20.92 dB 1:28 10-Annabella (Reprise)
DR14 -2.07 dB -18.10 dB 3:31 11-Annabella (Single Version)
--------------------------------------------------------------------------------

Number of tracks: 11
Official DR value: DR13

Samplerate: 44100 Hz
Channels: 2
Bits per sample: 16
Bitrate: 843 kbps
Codec: ALAC
================================================================================

Related to Craig Fuller / Eric Kaz - Craig Fuller / Eric Kaz (Expanded Edition):